Тимур Каргинов. Stand-Up концерт на ТНТ (2018) HDTV 1080i

Ответить на тему
 
Автор Сообщение

Tyison ®

Пол: Мужской

Стаж: 3 года 5 месяца

Сообщений: 1

Создавать темы 04-Май-2018 13:14:35

[Цитировать]



Первый телевизионный часовой концерт комика шоу Stand Up на ТНТ — Тимура Каргинова.

Подробности:
Интеллектуальный юмор под соусом повседневной жизни, приправленный щепоткой цинизма, с добавлением парадоксальности и остроты. Натуральный смех без ГМО и искусственных красителей.

Качество: 1080i HDTV
Формат: MPEG-PS
Данные видео: MPEG 2, PAL 25.00, 1920x1080, 10400 кбит/с
Данные аудио: Русский (Оригинал), MP2, 2ch (L,R), 224 кбит/с
General
Complete name : E:\Download\Timur.Karginov.Stand.Up.www.kvnforall.info.ts
Format : MPEG-PS
File size : 3.44 GiB
Duration : 45mn 25s
Overall bit rate mode : Variable
Overall bit rate : 10.8 Mbps

Video
ID : 224 (0xE0)
Format : MPEG Video
Format version : Version 2
Format profile : Main@High
Format settings, BVOP : Yes
Format settings, Matrix : Default
Format settings, GOP : M=3, N=12
Duration : 45mn 25s
Bit rate mode : Variable
Bit rate : 10.4 Mbps
Maximum bit rate : 15.0 Mbps
Width : 1 920 pixels
Height : 1 080 pixels
Display aspect ratio : 16:9
Frame rate : 25.000 fps
Color space : YUV
Chroma subsampling : 4:2:0
Bit depth : 8 bits
Scan type : Progressive
Scan order : Bottom Field First
Compression mode : Lossy
Bits/(Pixel*Frame) : 0.201
Time code of first frame : 00:00:00:00
Time code source : Group of pictures header
Stream size : 3.30 GiB (96%)

Audio
ID : 192 (0xC0)
Format : MPEG Audio
Format version : Version 1
Format profile : Layer 2
Duration : 45mn 25s
Bit rate mode : Constant
Bit rate : 224 Kbps
Channel count : 2 channels
Sampling rate : 44.1 KHz
Compression mode : Lossy
Stream size : 72.8 MiB (2%)
Menu


Последний раз редактировалось: Tyison (12-05-2018 16:39:16), всего редактировалось 4 раз(а)
[Профиль] [ЛС]

Curtislic

Пол: Не указан

Стаж: 3 года 5 месяца

Сообщений: 1

Откуда: Antigua and Barbuda

Создавать темы 09-Май-2018 21:09:58 (спустя 5 дня)

[Цитировать]

ATTENTION...


Последний раз редактировалось: Curtislic (11-05-2018 08:13:54), всего редактировалось 1 раз
[Профиль] [ЛС]
Показать сообщения:    
Ответить на тему

Текущее время: 16-Окт-2021 11:33:05

Часовой пояс: UTC + 3



Вы не можете начинать темы
Вы не можете отвечать на сообщения
Вы не можете редактировать свои сообщения
Вы не можете удалять свои сообщения
Вы не можете голосовать в опросах
Вы не можете прикреплять файлы к сообщениям
Вы не можете скачивать файлы