Реальные пацаны. Сезон 10 [1-16 серия из 16] [2018г., Комедия, молодежный фильм, SATRip]

Ответить на тему
 
Автор Сообщение

russia ®

Пол: Мужской

Стаж: 12 года

Сообщений: 405

Откуда: RUSSIA

Создавать темы 08-Апр-2018 09:53:31

[Цитировать]

Реальные пацаны. Сезон 10 [1-16 серия из 16] [2018г., Комедия, молодежный фильм, SATRip]

Год выпуска: 2018
Страна: Россия
Жанр: Комедия
Серия: Серия 1-16
Сезон: 10
Продолжительность: 16 х 00:23:00
Перевод: Не требуется




Режиссер:Жанна Кадникова

В ролях:Николай Наумов, Зоя Бербер, Антон Богданов, Владимир Селиванов, Станислав Тляшев, Мария Скорницкая, Валентина Мазунина, Марина Федункив, Армен Бежанян, Игорь Ознобихин, Алексей Базанов, Анастасия Плоскова, Сергей Ершов, Татьяна Ронзина, Любовь Рудометова, Юлия Гришнина, Михаил Чуднов, Юрий Богомолов, Василий Бичев, Анна Шепелева

Описание:
Колян решил завязать с политикой и стать простым человеком. Вместе с супругой Лерой он ожидает появления второго ребенка, что предусматривает увеличение расходов, однако глава семейства как всегда далек от финансового благополучия. Но без денег никуда, поэтому Коляну придется найти способ заработать. Весьма кстати к нему и другим персонажам ситкома приходит небывалая популярность. Теперь героям истории предстоит пройти испытание славой и подвергнуть серьезной проверке свою дружбу, отношения с близкими...

Качество: SATRip
Формат: AVI
Данные видео: XviD, 1800 Кбит/с, 720x400
Данные аудио: MP3, 2 ch, 128 Кбит/с
Общее
Полное имя : Реальные пацаны-10\Realnye.pacany.s10.e01.SATRip.avi
Формат : AVI
Формат/Информация : Audio Video Interleave
Размер файла : 324 Мбайт
Продолжительность : 23 м. 46 с.
Общий поток : 1908 Кбит/сек
Программа кодирования : VirtualDubMod 1.5.10.3 (build 2550/release)
Библиотека кодирования : VirtualDub build 29808/release

Видео
Идентификатор : 0
Формат : MPEG-4 Visual
Профиль формата : Advanced Simple@L5
Настройки формата : BVOP2
Параметр BVOP формата : 2
Параметр QPel формата : Нет
Параметр GMC формата : Без точки перехода
Параметр матрицы формата : Default (H.263)
Идентификатор кодека : XVID
Идентификатор кодека/Подсказка : XviD
Продолжительность : 23 м. 46 с.
Битрейт : 1770 Кбит/сек
Ширина : 720 пикселей
Высота : 400 пикселей
Соотношение сторон : 16:9
Частота кадров : 25,000 кадров/сек
Цветовое пространство : YUV
Субдискретизация насыщенности : 4:2:0
Битовая глубина : 8 бит
Тип развёртки : Прогрессивная
Метод сжатия : С потерями
Бит/(Пиксели*Кадры) : 0.246
Размер потока : 301 Мбайт (93%)
Библиотека кодирования : XviD 1.2.1 (UTC 2008-12-04)

Аудио
Идентификатор : 1
Формат : MPEG Audio
Версия формата : Version 1
Профиль формата : Layer 3
Идентификатор кодека : 55
Идентификатор кодека/Подсказка : MP3
Продолжительность : 23 м. 46 с.
Вид битрейта : Постоянный
Битрейт : 128 Кбит/сек
Каналы : 2 канала
Частота : 48,0 КГц
Частота кадров : 41,667 кадра/сек (1152 SPF)
Метод сжатия : С потерями
Размер потока : 21,8 Мбайт (7%)
Выравнивание : Соединение по промежуткам
Продолжительность промежутка : 40 мс. (1,00 видеокадр)
Время предзагрузки промежутка : 504 мс.
Библиотека кодирования : LAME3.99r
Настройки программы : -m s -V 4 -q 9 -lowpass 17 -b 128
[Профиль] [ЛС]

Пинквас

Пол: Мужской

Стаж: 11 года

Сообщений: 46

Откуда: Туринск сити

Создавать темы 16-Апр-2018 16:59:35 (спустя 8 дня)

[Цитировать]

Раздавать будем?
[Профиль] [ЛС]

videoReaks

Пол: Не указан

Стаж: 3 года 5 месяца

Сообщений: 1

Откуда: Россия

Создавать темы 19-Апр-2018 21:33:32 (спустя 3 дня)

[Цитировать]

камера онлайн новинки нижний новгород


Последний раз редактировалось: videoReaks (27-04-2018 08:41:03), всего редактировалось 1 раз
[Профиль] [ЛС]
Показать сообщения:    
Ответить на тему

Текущее время: 16-Окт-2021 10:51:50

Часовой пояс: UTC + 3



Вы не можете начинать темы
Вы не можете отвечать на сообщения
Вы не можете редактировать свои сообщения
Вы не можете удалять свои сообщения
Вы не можете голосовать в опросах
Вы не можете прикреплять файлы к сообщениям
Вы не можете скачивать файлы