Загрузка...
Ошибка

Секс и Дзен: Экстремальный экстаз 3Д / Sex and Zen 3D / 3D rou pu tuan zhi ji le bao jian [Theatrical Cut] (Кристофер Сунь Лэп Ки) [2011 г, Эротика, драма, мелодрама, фэнтези, BDRip 1080р] Half OverUnder / Вертикальная анаморфная стереопара

 
Автор Сообщение

fordeks

post 29-Мар-2012 17:24

[Цитировать] 

Секс и Дзен: Экстремальный экстаз 3Д / 3D rou pu tuan zhi ji le bao jian


Год выпуска: 2011 г.
Страна: Гонконг (Local Production)
Жанр: Эротика, драма, мелодрама, фэнтези
Продолжительность: 01:52:55
Перевод: Многоголосый закадровый
Субтитры: Нет

Режиссер: Кристофер Сунь Лэп Ки / Christopher Sun Lap Key

В ролях: Саори Хара, Лени Лан, Вонни Луи, Юкико Сью, Хироёши Комуро, Ирен Чен, Ва Чи Хо, Тони Хо

Описание: Главный герой мечтает познать все сексуальные удовольствия. Он отправляется в Замок Разврата, чтобы познать желание, страсть, наслаждение, научиться удовлетворять и дарить удовольствие.

Качество: BDRip 1080р
Формат: MKV
Формат 3D: Half OverUnder / Вертикальная анаморфная стереопара
Видео: AVC; 1920х1080; 23,976 fps; 21.7 Mbps
Аудио №1: AC3; 48 KHz; 5.1 ch; 448 Kbps - Русский
№2: AC3; 48 KHz; 5.1 ch; 448 Kbps - Китайский

     

Бюджет: $2 580 000
Сборы в США: $153 215
Сборы в мире: + $6 216 148 = $6 369 363
Сборы в России: $242 475

Премьера (мир): 14 апреля 2011 г.
Премьера (РФ): 7 июля 2011 г., «Премиум Фильм»
Релиз на DVD: 29 сентября 2011 г., «CP-Digital»
Релиз на Blu-Ray: 29 сентября 2011 г., «CP-Digital»
General
Format : Matroska
File size : 18.2 GiB
Duration : 1h 52mn
Overall bit rate : 23.1 Mbps
Encoded date : UTC 2011-09-09 16:06:09
Writing application : mkvmerge v4.0.0 ('The Stars were mine') сборка от Jun 6 2010 16:18:42
Writing library : libebml v1.0.0 + libmatroska v1.0.0
Video
ID : 1
Format : AVC
Format/Info : Advanced Video Codec
Format profile : High@L4.1
Format settings, CABAC : Yes
Format settings, ReFrames : 4 frames
Codec ID : V_MPEG4/ISO/AVC
Duration : 1h 52mn
Bit rate : 21.7 Mbps
Width : 1 920 pixels
Height : 1 080 pixels
Display aspect ratio : 16:9
Frame rate : 23.976 fps
Color space : YUV
Chroma subsampling : 4:2:0
Bit depth : 8 bits
Scan type : Progressive
Bits/(Pixel*Frame) : 0.437
Stream size : 17.1 GiB (94%)
Writing library : x264 core 116 r2074 2641b9e
Encoding settings : cabac=1 / ref=4 / deblock=1:-3:-3 / analyse=0x3:0x113 / me=umh / subme=9 / psy=1 / psy_rd=1.00:0.15 / mixed_ref=1 / me_range=16 / chroma_me=1 / trellis=2 / 8x8dct=1 / cqm=0 / deadzone=21,11 / fast_pskip=1 / chroma_qp_offset=-3 / threads=6 / sliced_threads=0 / nr=0 / decimate=1 / interlaced=0 / bluray_compat=0 / constrained_intra=0 / bframes=6 / b_pyramid=2 / b_adapt=2 / b_bias=0 / direct=3 / weightb=1 / open_gop=0 / weightp=2 / keyint=250 / keyint_min=23 / scenecut=40 / intra_refresh=0 / rc_lookahead=40 / rc=crf / mbtree=1 / crf=18.0 / qcomp=0.70 / qpmin=1 / qpmax=51 / qpstep=4 / ip_ratio=1.40 / aq=1:1.00
Language : Chinese
Audio #1
ID : 2
Format : AC-3
Format/Info : Audio Coding 3
Mode extension : CM (complete main)
Codec ID : A_AC3
Duration : 1h 52mn
Bit rate mode : Constant
Bit rate : 448 Kbps
Channel(s) : 6 channels
Channel positions : Front: L C R, Side: L R, LFE
Sampling rate : 48.0 KHz
Bit depth : 16 bits
Compression mode : Lossy
Stream size : 362 MiB (2%)
Language : Russian
Audio #2
ID : 3
Format : AC-3
Format/Info : Audio Coding 3
Mode extension : CM (complete main)
Codec ID : A_AC3
Duration : 1h 52mn
Bit rate mode : Constant
Bit rate : 448 Kbps
Channel(s) : 6 channels
Channel positions : Front: L C R, Side: L R, LFE
Sampling rate : 48.0 KHz
Bit depth : 16 bits
Compression mode : Lossy
Stream size : 362 MiB (2%)
Language : Chinese



Download torrent file with MediaGet/Скачать торрент файл с помощью MegiaGet

__rotator_param_f


Сайт не распростран¤ет и не хранит электронные версии произведений, не предоставляет доступ, не помогает, не использует, не участвует, не создает, а являетс¤ лишь форумом для общени¤, убедительная просьба с жалобами обращаться напр¤мую к пользователю.
The site does not extend and does not store electronic(digital) versions of products, and no access to any copyrighted materials, this site only is forum for talking, with complaints(abuse) to access directly to the user.





post 29-Мар-2012 17:27 (спустя 3 минуты)

Топик был перенесен из форума Оформление раздач в форум 3D Кинофильмы


fordeks